1080p Filmler480p FilmlerFilm indir

Yenilmezler: Sonsuzluk Savaşı (2018) 1080p Türkçe Altyazılı İndir

blank

FİLMİN ORİJİNAL BLURAY SÜRÜMÜ SİTEMİZE EKLENMİŞTİR. 1080P – M1080P VE 480P OLARAK TÜRKÇE DUBLAJ SEÇENEKLİ İNDİREBİLİRSİNİZ.

Yenilmezler: Sonsuzluk Savaşı indir, 2018 yılında vizyona giren aksiyon, macera ve aksiyon türünde serinin devam yapımlarından birisidir. Yönetmenliğini Anthony Russo’nun yaptığı filmin oyunculuklarını ise Robert Downey Jr., Chris Hemsworth, Mark Ruffalo gibi ünlü isimler üstleniyor. Sitemizden 1080p kalitesinde Türkçe altyazılı olarak torrent linkleriyle birlikte indirip, izleyebileceğiniz filmin konusu ise: Iron Man ve Kaptan Amerika kavga ederek ayrılmışlar ve birbirlerinden oldukça uzak iki bölgede işlerini yapmaya devam etmektedirler. İnsanlığın kaderi ise yine süper bir güç olan Thanos tarafından tehlikededir. Hiçbir süper kahramanın yalnız başına yenemeyecek kadar güçlü olan bu düşman için ya birlikte savaşacaklar ya da dünya ölüme terk edilecekti. Keyifli seyirler dilerken bir önce eklediğimiz Düğüm Salonu filmine de göz atmanızı tavsiye ederim.

blank
blank
Yenilmezler: Sonsuzluk Savaşı (2018) 1080p Türkçe Altyazılı İndir

https://www.imdb.com/title/tt4154756/

FILM ADI

Yenilmezler: Sonsuzluk Savaşı – Avengers: Infinity War

IMDb PUANI

8.7

FILM YILI

2018

FILM TURU

Aksiyon, Macera, Fantastik

OYUNCULAR

Robert Downey Jr., Chris Hemsworth, Mark Ruffalo

YÖNETMEN

Anthony Russo

Yenilmezler: Sonsuzluk Savaşı (2018) 1080p Türkçe Altyazılı İndir.mp4 - (1.80 GB)
İNDİR  Kırık Link Bildir
Dosya indirme koşullarını okudum, kabul ediyorum.
Yenilmezler: Sonsuzluk Savaşı (2018) 1080p Türkçe Altyazılı İndir.mp4 - (1.80 GB)
İNDİR  Kırık Link Bildir
Dosya indirme koşullarını okudum, kabul ediyorum.

GÖRÜNTÜ

 

 

 

    Yenilmezler: Sonsuzluk Savaşı FRAGMAN

    DOSYA BİLGİSİ

    1080p

    Format : Matroska
    Format version : Version 4 / Version 2
    File size : 5.13 GiB
    Duration : 2 h 29 min
    Overall bit rate : 4 905 kb/s
    Encoded date : UTC 2018-07-30 17:31:39
    Writing application : mkvmerge v7.9.0 (‘Birds’) 64bit
    Writing library : libebml v1.3.1 + libmatroska v1.4.2
    Cover : Yes
    Attachments : small_cover.jpg / small_cover_land.jpg / cover.jpg / cover_land.jpg
    Video
    ID : 1
    Format : AVC
    Format/Info : Advanced Video Codec
    Format profile : [email protected]
    Format settings : CABAC / 5 Ref Frames
    Format settings, CABAC : Yes
    Format settings, ReFrames : 5 frames
    Codec ID : V_MPEG4/ISO/AVC
    Duration : 2 h 29 min
    Bit rate : 4 423 kb/s
    Width : 1 920 pixels
    Height : 804 pixels
    Display aspect ratio : 2.40:1
    Frame rate mode : Constant
    Frame rate : 23.976 (24000/1001) FPS
    Color space : YUV
    Chroma subsampling : 4:2:0
    Bit depth : 8 bits
    Scan type : Progressive
    Bits/(Pixel*Frame) : 0.120
    Stream size : 4.62 GiB (90%)
    Language : English
    Default : Yes
    Forced : No
    Color range : Limited
    Color primaries : BT.709
    Transfer characteristics : BT.709
    Matrix coefficients : BT.709
    Audio
    ID : 2
    Format : AC-3
    Format/Info : Audio Coding 3
    Codec ID : A_AC3
    Duration : 2 h 29 min
    Bit rate mode : Constant
    Bit rate : 384 kb/s
    Channel(s) : 6 channels
    Channel positions : Front: L C R, Side: L R, LFE
    Sampling rate : 48.0 kHz
    Frame rate : 31.250 FPS (1536 SPF)
    Bit depth : 16 bits
    Compression mode : Lossy
    Delay relative to video : -43 ms
    Stream size : 411 MiB (8%)
    Language : English
    Service kind : Complete Main
    Default : Yes
    Forced : No

    HDRip

    RELEASE: Avengers.Infinity.War.2018.HDRip.XviD.AC3-EVO
    SOURCE: iTunes
    ViDEO: 1158 Kbps -2 Passes
    RESOLUTiON: 720×304
    RUNTiME: 2h 29m 43s
    SUBTiTLES: No.
    AUDiO: 384 Kbps AC3 5.1
    LANGUAGE: English

    Uyumlu Türkçe altyazıyı buradan indirebilirsiniz.

    1080p – Türkçe Altyazılı  – WEBDL – 5.13  GB

    Turbobit

    Userscloud

    Uptobox

    Cloud Mail RU

    Torrent

    HDRip – Türkçe Altyazılı – WEBDL – 1.61  GB

    Turbobit

    Userscloud

    Uptobox

    MegaUP

    Cloud Mail RU

    Torrent

    RAR Şifresi: indir.pub

    Etiketler
    Daha Fazla Görüntüle

    9 Yorum

      1. Evet haklısınız. Bluray sürüm daha kaliteli olur. Ama bu sürümde orijinal iTunes kalitesindedir.

    Bir cevap yazın

    E-posta hesabınız yayımlanmayacak. Gerekli alanlar * ile işaretlenmişlerdir

    This site uses Akismet to reduce spam. Learn how your comment data is processed.

    Close
    Close