Belgesel İndir

Nazi Zaferi Savaş Sonrası Planları İndir (2018) Türkçe Dublaj

Nazi Zaferi Savaş Sonrası Planları 1080p
Nazi Zaferi Savaş Sonrası Planları indir

Nazi Zaferi Savaş Sonrası Planları indir, Viasat History kanalında yayınlanan 6 bölümlük harika bir yapımdır. Nazilerin ellerinde bulundurdukları teknolojiler, askeri güç, acımasızlıklar ve bunların neticesinde alınan başarıların anlatıldığı değerli bir belgesel serisidir. Sitemizden 1080p kalitesinde Türkçe dublajlı olarak tek link torrent indirip, izleyebilirsiniz. Keyifli seyirler.

https://www.imdb.com/title/tt9174966/



Nazi Zaferi Savaş Sonrası Planları İndir (2018) Türkçe Dublaj

FILM ADI

Nazi Zaferi Savaş Sonrası Planları – Nazi Victory: The Post War Plan

IMDb Puanı

6.6

FILM YILI

2018

FILM TURU

Belgesel, Tarih, Savaş

OYUNCULAR

Guy Walters

YONETMEN

GORUNTU

  Nazi Zaferi Savaş Sonrası Planları 1080p indir 

   

   

    DOSYA BİLGİSİ

    1080p

    Format : Matroska
    Format version : Version 4
    File size : 820 MiB
    Duration : 43 min 58 s
    Overall bit rate : 2 608 kb/s
    Writing library : Lavf58.20.100
    ErrorDetectionType : Per level 1

    Video
    ID : 1
    Format : HEVC
    Format/Info : High Efficiency Video Coding
    Format profile : [email protected]@Main
    Codec ID : V_MPEGH/ISO/HEVC
    Duration : 43 min 58 s
    Bit rate : 2 396 kb/s
    Width : 1 920 pixels
    Height : 1 080 pixels
    Display aspect ratio : 16:9
    Frame rate mode : Constant
    Frame rate : 25.000 FPS
    Color space : YUV
    Chroma subsampling : 4:2:0
    Bit depth : 8 bits
    Bits/(Pixel*Frame) : 0.046
    Stream size : 754 MiB (92%)
    Default : Yes
    Forced : No
    Color range : Limited
    Color primaries : BT.709
    Transfer characteristics : BT.709
    Matrix coefficients : BT.709

    Audio
    ID : 2
    Format : AC-3
    Format/Info : Audio Coding 3
    Commercial name : Dolby Digital
    Codec ID : A_AC3
    Duration : 43 min 58 s
    Bit rate mode : Constant
    Bit rate : 160 kb/s
    Channel(s) : 2 channels
    Channel layout : L R
    Sampling rate : 48.0 kHz
    Frame rate : 31.250 FPS (1536 SPF)
    Bit depth : 16 bits
    Compression mode : Lossy
    Delay relative to video : -5 ms
    Stream size : 50.3 MiB (6%)
    Title : Stereo
    Language : Turkish
    Service kind : Complete Main
    Default : Yes
    Forced : No

    Nazi Zaferi Savaş Sonrası Planları Filmi İndir

    Nazi Zaferi Savaş Sonrası Planları İndir (2018) Türkçe Dublaj.mp4 - (1.80 GB)
    İNDİR  Kırık Link Bildir
    Dosya indirme koşullarını okudum, kabul ediyorum.
    Nazi Zaferi Savaş Sonrası Planları İndir (2018) Türkçe Dublaj.mp4 - (1.80 GB)
    İNDİR  Kırık Link Bildir
    Dosya indirme koşullarını okudum, kabul ediyorum.

    1080p – Türkçe Dublaj – HDTV – 820 MB

    Turbobit, Mail RU, MEGA, Torrent

    RAR Şifresi: indir.pub

    Etiketler
    Daha Fazla Görüntüle

    Bir cevap yazın

    E-posta hesabınız yayımlanmayacak. Gerekli alanlar * ile işaretlenmişlerdir

    This site uses Akismet to reduce spam. Learn how your comment data is processed.

    Close
    Close