Belgesel İndir

2. Dünya Savaşı: Çin’in Unutulmuş Savaşı İndir (2015) 1080p Türkçe Dublaj

2. Dünya Savaşı: Çin’in Unutulmuş Savaşı indir, II. Dünya savaşı Avrupa’yı perişan ederken, Çin 1937’den beri Japon İmparatorluk Ordusu’nun korkunç saldırısına maruz kalmıştı. Çin’in savaşı en uzun ve en kanlı savaşlardan biriydi. Sitemizden 2 bölümü de 1080p kalitesinde Türkçe dublaj olarak indirip, izleyebilirsiniz.



2. Dünya Savaşı: Çin’in Unutulmuş Savaşı İndir (2015) 1080p Türkçe Dublaj

https://www.imdb.com/title/tt8292600

FILM ADI

2. Dünya Savaşı: Çin’in Unutulmuş Savaşı – WWII: China’s Forgotten War

IMDb Puanı

6.9

FILM YILI

2015

FILM TURU

Belgesel, Tarih, Savaş

OYUNCULAR

YONETMEN

2. Dünya Savaşı: Çin’in Unutulmuş Savaşı İndir (2015) 1080p Türkçe Dublaj.mp4 - (1.80 GB)
İNDİR  Kırık Link Bildir
Dosya indirme koşullarını okudum, kabul ediyorum.
2. Dünya Savaşı: Çin’in Unutulmuş Savaşı İndir (2015) 1080p Türkçe Dublaj.mp4 - (1.80 GB)
İNDİR  Kırık Link Bildir
Dosya indirme koşullarını okudum, kabul ediyorum.

GORUNTU

   

   

   

    DOSYA BİLGİSİ

    1080p

    Format : Matroska
    Format version : Version 4
    File size : 860 MiB
    Duration : 44 min 49 s
    Overall bit rate : 2 684 kb/s
    Writing library : Lavf58.20.100
    ErrorDetectionType : Per level 1

    Video
    ID : 1
    Format : HEVC
    Format/Info : High Efficiency Video Coding
    Format profile : [email protected]@Main
    Codec ID : V_MPEGH/ISO/HEVC
    Duration : 44 min 49 s
    Bit rate : 2 470 kb/s
    Width : 1 920 pixels
    Height : 1 080 pixels
    Display aspect ratio : 16:9
    Frame rate mode : Constant
    Frame rate : 25.000 FPS
    Color space : YUV
    Chroma subsampling : 4:2:0
    Bit depth : 8 bits
    Bits/(Pixel*Frame) : 0.048
    Stream size : 792 MiB (92%)
    Default : Yes
    Forced : No
    Color range : Limited
    Color primaries : BT.709
    Transfer characteristics : BT.709
    Matrix coefficients : BT.709

    Audio
    ID : 2
    Format : AC-3
    Format/Info : Audio Coding 3
    Commercial name : Dolby Digital
    Codec ID : A_AC3
    Duration : 44 min 49 s
    Bit rate mode : Constant
    Bit rate : 160 kb/s
    Channel(s) : 2 channels
    Channel layout : L R
    Sampling rate : 48.0 kHz
    Frame rate : 31.250 FPS (1536 SPF)
    Bit depth : 16 bits
    Compression mode : Lossy
    Delay relative to video : -5 ms
    Stream size : 51.3 MiB (6%)
    Title : Stereo
    Language : Turkish
    Service kind : Complete Main
    Default : Yes
    Forced : No

    2. Dünya Savaşı: Çin’in Unutulmuş Savaşı Filmi İndir

    1080p – Türkçe Dublaj – HDTV – 1.73 GB

    Turbobit, Mail RU, MEGA, Torrent

    RAR Şifresi: indir.pub

    Etiketler
    Daha Fazla Görüntüle

    Bir cevap yazın

    E-posta hesabınız yayımlanmayacak. Gerekli alanlar * ile işaretlenmişlerdir

    This site uses Akismet to reduce spam. Learn how your comment data is processed.

    Close
    Close